منتديات جينيس تو أوول


 
الرئيسيةس .و .جبحـثالتسجيلدخول

شاطر | 
 

  Interstellar 2014

استعرض الموضوع السابق استعرض الموضوع التالي اذهب الى الأسفل 
كاتب الموضوعرسالة
Ashry93
Admin
Admin
avatar

ذكر السرطان
عدد المساهمات : 126
نقاط : 301
السٌّمعَة : 17
تاريخ التسجيل : 04/07/2013
العمر : 24

مُساهمةموضوع: Interstellar 2014   الخميس يناير 22, 2015 12:38 am

Interstellar 2014







Source: DVDScr
thx m8, for coming through, bow

Notes:
looks like my last prediction came through, this one is the smash hit!!
will this beat hobbit? only one way to find out GO GET IT!!!
was very complicated to do, a lot more than i thought, but doable.

Encode:
quality was nice, the usual problems, all very reddish and not that bright.
it was a pita to do, fixing the colours, so that white is white and blue is blue without drowning the others
also fixed brightness,contrast,saturation without going over

removed all kind of watermarks and for security i had to cut in the frames a lot, around 50 cuts were needed, all clear now
for the resolution i had to find a middle-way, 720x304 was too small and 720x320 looked a bit off, so took what looks best.
had to resync audio cpl times too, no worries all is sync.

will do me till retail
enjoy

Video: 720x314 @bitrate 1700 2pass
Audio: English AC3 2.0 Stereo
Sample: yes included











General
Complete name : Interstellar.2014.DVDScr.XVID.AC3.HQ.Hive-CM8.avi
Format : AVI
Format/Info : Audio Video Interleave
Format profile : OpenDML
Format settings : rec
File size : 2.28 GiB
Duration : 2h 49mn
Overall bit rate : 1 932 Kbps
Writing application : AVI-Mux GUI 1.17.7, Aug 8 2006 20:59:17

Video
ID : 0
Format : MPEG-4 Visual
Format profile : Advanced Simple@L5
Format settings, BVOP : 2
Format settings, QPel : Yes
Format settings, GMC : No warppoints
Format settings, Matrix : Default (H.263)
Muxing mode : Packed bitstream
Codec ID : XVID
Codec ID/Hint : XviD
Duration : 2h 49mn
Bit rate : 1 702 Kbps
Width : 720 pixels
Height : 314 pixels
Display aspect ratio : 2.25:1
Frame rate : 29.970 fps
Color space : YUV
Chroma subsampling : 4:2:0
Bit depth : 8 bits
Scan type : Progressive
Compression mode : Lossy
Bits/(Pixel*Frame) : 0.251
Stream size : 2.01 GiB (88%)
Writing library : XviD 1.2.1 (UTC 2008-12-04)

Audio
ID : 1
Format : AC-3
Format/Info : Audio Coding 3
Mode extension : CM (complete main)
Format settings, Endianness : Big
Codec ID : 2000
Duration : 2h 49mn
Bit rate mode : Constant
Bit rate : 224 Kbps
Channel(s) : 2 channels
Channel positions : Front: L R
Sampling rate : 48.0 KHz
Bit depth : 16 bits
Compression mode : Lossy
Stream size : 271 MiB (12%)
Alignment : Aligned on interleaves
Interleave, duration : 64 ms (1.92 video frames)
Interleave, preload duration : 192 ms



الترجمه منفصله 






Follow me In Facebook Smile 
الرجوع الى أعلى الصفحة اذهب الى الأسفل
معاينة صفحة البيانات الشخصي للعضو
 
Interstellar 2014
استعرض الموضوع السابق استعرض الموضوع التالي الرجوع الى أعلى الصفحة 
صفحة 1 من اصل 1

صلاحيات هذا المنتدى:لاتستطيع الرد على المواضيع في هذا المنتدى
منتديات جينيس تو أوول :: منتدى الأفلام الأنمى-
انتقل الى: